По наращиванию ногтей скачать торрент

Наращивание ногтей для начинающих. Теория.


Обучающий видеокурс по наращиванию ногтей гелем,акрило м системы IBD [2006 г., DVDRip]


 На всех торрентах на трекере установлена скидка на скачивание в размере 100 процентов(а).
 Возможность скачивания торрента НЕ зависит от ограничений при низком ратио, низком аплоаде, требуемом ратио или требуемом аплоаде.

Сейчас этот форум просматривают: нет зарегистрированных пользователей и гости: 0


Вы не можете начинать темы
Вы не можете отвечать на сообщения
Вы не можете редактировать свои сообщения
Вы не можете удалять свои сообщения
Вы не можете добавлять вложения


!ВНИМАНИЕ!
 Ресурс не предоставляет электронные версии произведений, а занимается лишь коллекционированием и каталогизацией ссылок, присылаемых и публикуемых на форуме нашими читателями. Если вы являетесь правообладателем какого-либо представленного материала и не желаете чтобы ссылка на него находилась в нашем каталоге, свяжитесь с нами и мы незамедлительно удалим её. Файлы для обмена на трекере предоставлены пользователями сайта, и администрация не несёт ответственности за их содержание. Просьба не заливать файлы, защищенные авторскими правами, а также файлы нелегального содержания!



 
Статистика раздачи
Размер: 3.69 ГБ | Добавлен: 30 авг 2015, 21:31 | Скачали: 10
Сидеров: 104  [0 байт/сек]    Личеров: 36  [0 байт/сек]
Автор

Сообщение

Гость

Добавлено: 30 авг 2015, 21:31 

 

Алена Кутнякова | Секреты Маникюра и Наращивания Ногтей (2014) [DVDRip]


Автор (режиссер): Алена Кутнякова
Жанр: Обучающие видеуроки
Продолжительность: 06:01:15
Качество видео: DVDRip
Видеокодек: MPEG4 (AVC)
Битрейт видео: ~2 474 Kbps
Размер кадра: 1280х720
Аудиокодек: AAC
Битрейт аудио: 151 Kbps, 2 ch

Описание:
В видеокурсе подробно раскрываются самые востребованные современные технологии моделирования ногтей по форме, арочный квадрат, пайп, миндаль, овал. Кроме этого, для самостоятельного изучения предлагается несколько различных видов маникюра, а также множество видов дизайна ногтей

01. Подготовка рабочего места
02. Инструменты и материалы для наращивания ногтей
03. Правила санитарии и гигиены
04. Строение и структура ногтевой пластины. Противопоказания к наращиванию
05. Подготовка ногтей к наращиванию
06. Наращивание ногтей под лак камуфлирующим гелем. Квадрат и овал. Перманентный френч.
07. Наращивание формы «Арочный квадрат» в технике «Выкладной френч»
08. Наращивание формы «Пайп» в технике «Выкладной френч». Аквариумный дизайн
09. Наращивание формы «Миндаль». Работа с витражными гелями.
10. Ремонт поломанных ногтей. Коррекция, снятие нарощенных ногтей
11. Уход за маникюром - защита и укрепление ногтей
12. Виды маникюра
13. Домашний маникюр в технике классического
14. Оригинальные стили дизайна ногтей
15. Литье фольгой в дизайне ногтей

Бонусы
Видеокурс "Секреты Shellac, покрытие гель-лаком"
Видеокурс "Украшение и Художественная Роспись на Ногтях"

General
Complete name : 01. Секреты Маникюра и Наращивания Ногтей\01. Вступление.mp4
Format : MPEG-4
Format profile : Base Media
Codec ID : isom
File size : 9.47 MiB
Duration : 30s 497ms
Overall bit rate : 2 606 Kbps
Writing application : Lavf52.93.0

Video
ID : 1
Format : AVC
Format/Info : Advanced Video Codec
Format profile :
Format settings, CABAC : No
Format settings, ReFrames : 1 frame
Codec ID : avc1
Codec ID/Info : Advanced Video Coding
Duration : 30s 497ms
Bit rate mode : Variable
Bit rate : 2 474 Kbps
Width : 1 280 pixels
Height : 720 pixels
Display aspect ratio : 16:9
Frame rate mode : Constant
Frame rate : 29.970 fps
Color space : YUV
Chroma subsampling : 4:2:0
Bit depth : 8 bits
Scan type : Progressive
Bits/(Pixel*Frame) : 0.090
Stream size : 8.91 MiB (94%)
Writing library : x264 core 112
Encoding settings : cabac=0 / ref=1 / deblock=1:0:0 / analyse=0x1:0x111 / me=hex / subme=7 / psy=1 / psy_rd=1.00:0.00 / mixed_ref=0 / me_range=16 / chroma_me=1 / trellis=1 / 8x8dct=0 / cqm=0 / deadzone=21,11 / fast_pskip=1 / chroma_qp_offset=-2 / threads=1 / sliced_threads=0 / nr=0 / decimate=1 / interlaced=0 / constrained_intra=0 / bframes=0 / weightp=0 / keyint=250 / keyint_min=25 / scenecut=40 / intra_refresh=0 / rc_lookahead=40 / rc=abr / mbtree=1 / bitrate=2474 / ratetol=1.0 / qcomp=0.60 / qpmin=10 / qpmax=51 / qpstep=4 / ip_ratio=1.41 / aq=1:1.00

Audio
ID : 2
Format : AAC
Format/Info : Advanced Audio Codec
Format profile : LC
Codec ID : 40
Duration : 30s 441ms
Bit rate mode : Variable
Bit rate : 151 Kbps
Channel(s) : 2 channels
Channel positions : Front: L R
Sampling rate : 44.1 KHz
Compression mode : Lossy
Stream size : 562 KiB (6%)

Скриншоты:




Время раздачи: 24/7 (круглосуточно) - до 5 скачавших, далее по возможности.
Статус
Размер 3.69 ГБ
Приватный:Нет (DHT включён)
.torrent скачан 10
Как залить торрент? | Как скачать Torrent? | Как смотреть и слушать онлайн?  


     

   


  Похожие торренты  Автор  Ответы  Просмотры  Последнее сообщение 
ПроверенСекреты войны / Oorlogsgeheimen (2014) DVDRip | L1

в форуме Военные, Размер: 1.37 ГБ, Здоровье: 68%

Anonymous

0
88|129

245
117

04 ноя 2014, 09:30

Anonymous

Галина Зеленова | Дизайн и роспись ногтей [2006] [PDF]

в форуме На досуге, Размер: 62.89 МБ, Здоровье: 100%

Anonymous

0
7|3

44
1

24 мар 2014, 22:46

Anonymous

ПроверенСекреты обольщения: Искусство управления интимными мышцами (2004) DVDRip

в форуме Интерактивные обучающие и развивающие материалы, Размер: 700.01 МБ, Здоровье: 100%

Anonymous

0
47|39

213
12

28 дек 2015, 22:43

Anonymous

Алексей Маматов | Бакланка — секреты хулиганской драки (2005) [DVDRip]

в форуме Фитнес - Разум и Тело, Размер: 701.8 МБ, Здоровье: 100%

Anonymous

0
353|5

340
8

25 июн 2014, 22:31

Anonymous

Проверен(Шансон) Алёна Скок - Просто женщина - 2014, MP3, 320 kbps

в форуме Шансон|Авторская песня, Размер: 100.17 МБ, Здоровье: 84%

Anonymous

0
11|13

34
2

05 ноя 2016, 19:56

Anonymous



Источник: http://rutorka.net/alena-kutnyakova-sekreti-manikura-i-narashchivaniya-nogtey-2014-t46228.html

Опубликовано: 2017-12-15T02:36:59 | Автор: Лада

Дата
Заголовок
По наращиванию ногтей скачать торрент
Рейтинг
51star1star1star1star1star

Похожие статьи:

Всего 8 комментариев.


#1 16.12.2017 в 13:36 Ева:
Нажмите синюю кнопку, чтобы cкачать бесплатно через торрент видео-урок.  Строение и структура ногтевой пластины. Противопоказания к наращиванию 05. Подготовка ногтей к наращиванию 06.

#2 21.12.2017 в 09:52 Емельян:
Похожие торренты.  Скачать. Наращивание ногтей акрилом, салон Алла Белла, Воронеж [2008 г., Обучающее видео, DVDRip].

#3 27.12.2017 в 23:44 kritemretib:
Rutorka.net - торрент-трекер. Бесплатно и без регистрации скачать torrent игры, фильмы, музыку, программы, сериалы  Гость. Добавлено: 30 авг 2015, 18:31. Алена Кутнякова | Секреты Маникюра и Наращивания Ногтей (2014) [DVDRip].

#4 01.01.2018 в 17:49 Карл:
Описание: Обучающий DVD по наращиванию ногтей гелем, акрилом.  Дам скачать всем. Основное время раздачи с 8.00 до 12.00 (пока сама делаю ногти).

#5 04.01.2018 в 03:16 Филипп:
Скачать бесплатно [524.0 mb].  Наращивание ногтей гелем,акрилом системы IBD / Обучающий видеокурс по технологии гель, акрил [2006, Обучающее видео, DV.

#6 12.01.2018 в 13:13 remeare:
Строение и структура ногтевой пластины. Противопоказания к наращиванию 05.  General Complete name: 01. Секреты Маникюра и Наращивания Ногтей\01.  Время раздачи: 24/7 (круглосуточно) - до 5 скачавших, далее по возможности.  Торрент: Зарегистрирован.

#7 15.01.2018 в 18:34 erraimefoot:
Описание: Наращивание ногтей верхними формами. Учебный фильм.  Как скачивать · Что такое torrent (торрент).

#8 24.01.2018 в 03:34 Савватий:
Описание:Обучающий DVD по наращиванию ногтей гелем, акрилом.  Скачать.torrent файл (основная ссылка для скачивания файла) Смотреть / Слушать онлайн просмотр (ссылка для просмотра файла через плагин  ViKa (Искать торренты).